24Hr-NonStop

เว็บโหลดหนังฟรี โหลดหนัง HD หนัง Master ซูม หนังเข้าใหม่ หนังเก่า แจกหนัง หนังต่างประเทศ หนังไทย โหลดเร็วโหลดฟรีไม่ต้องรอ
 
บ้านCalendarช่วยเหลือค้นหารายชื่อสมาชิกกลุ่มผู้ใช้สมัครสมาชิก(Register)เข้าสู่ระบบ(Log in)

Share | 
 

 [4K HDR 2160P] Salt (2010) สวยสังหาร [พากย์ไทย 5.1 + เสียงอังกฤษ 5.1] [บรรยายไทย + อังกฤษ]

Go down 
ผู้ตั้งข้อความ
Admin
Admin
avatar

จำนวนข้อความ : 191
Join date : 09/06/2018

ตั้งหัวข้อเรื่อง: [4K HDR 2160P] Salt (2010) สวยสังหาร [พากย์ไทย 5.1 + เสียงอังกฤษ 5.1] [บรรยายไทย + อังกฤษ]   Fri Jun 22, 2018 10:43 pm


[4K HDR 2160P] Salt (2010) สวยสังหาร [พากย์ไทย 5.1 + เสียงอังกฤษ 5.1] [บรรยายไทย + อังกฤษ]


Format : Matroska
File size : 19.4 GiB
Duration : 1h 40mn
Overall bit rate : 27.8 Mbps

Video
ID : 1
Format : HEVC
Format/Info : High Efficiency Video Coding
Format profile : Main 10@L5.1@High
Codec ID : V_MPEGH/ISO/HEVC
Duration : 1h 39mn
Bit rate : 26.4 Mbps
Width : 3 840 pixels
Height : 1 608 pixels
Display aspect ratio : 2.40:1
Frame rate mode : Constant
Frame rate : 23.976 (24000/1001) fps
Color space : YUV
Chroma subsampling : 4:2:0
Bit depth : 10 bits
Bits/(Pixel*Frame) : 0.178
Stream size : 18.4 GiB (95%)
Writing library : x265 2.6+11-94dc146c5f67:[Windows][GCC 7.2.0][64 bit] 10bit
Encoding settings : cpuid=1173503 / frame-threads=4 / numa-pools=16 / wpp / no-pmode / no-pme / no-psnr / no-ssim / log-level=2 / input-csp=1 / input-res=3840x1608 / interlace=0 / total-frames=143856 / level-idc=51 / high-tier=1 / uhd-bd=0 / ref=4 / no-allow-non-conformance / repeat-headers / annexb / aud / hrd / info / hash=0 / no-temporal-layers / no-open-gop / min-keyint=24 / keyint=240 / gop-lookahead=0 / bframes=4 / b-adapt=2 / b-pyramid / bframe-bias=0 / rc-lookahead=25 / lookahead-slices=4 / scenecut=40 / no-intra-refresh / ctu=64 / min-cu-size=8 / rect / no-amp / max-tu-size=32 / tu-inter-depth=1 / tu-intra-depth=1 / limit-tu=0 / rdoq-level=2 / dynamic-rd=0.00 / no-ssim-rd / signhide / no-tskip / nr-intra=0 / nr-inter=0 / no-constrained-intra / no-strong-intra-smoothing / max-merge=3 / limit-refs=3 / limit-modes / me=3 / subme=3 / merange=57 / temporal-mvp / weightp / no-weightb / no-analyze-src-pics / deblock=-3:-3 / no-sao / no-sao-non-deblock / rd=4 / no-early-skip / rskip / no-fast-intra / no-tskip-fast / no-cu-lossless / no-b-intra / no-splitrd-skip / rdpenalty=0 / psy-rd=2.00 / psy-rdoq=1.00 / no-rd-refine / analysis-reuse-mode=0 / no-lossless / cbqpoffs=0 / crqpoffs=0 / rc=crf / crf=17.0 / qcomp=0.60 / qpstep=4 / stats-write=0 / stats-read=0 / vbv-maxrate=160000 / vbv-bufsize=160000 / vbv-init=0.9 / crf-max=0.0 / crf-min=0.0 / ipratio=1.40 / pbratio=1.30 / aq-mode=1 / aq-strength=1.00 / cutree / zone-count=0 / no-strict-cbr / qg-size=32 / no-rc-grain / qpmax=69 / qpmin=0 / no-const-vbv / sar=1 / overscan=0 / videoformat=5 / range=0 / colorprim=9 / transfer=16 / colormatrix=9 / chromaloc=1 / chromaloc-top=2 / chromaloc-bottom=2 / display-window=0 / master-display=G(13250,34500)B(7500,3000)R(34000,16000)WP (15635,16450)L(40000000,50) / max-cll=1281,1087 / min-luma=0 / max-luma=1023 / log2-max-poc-lsb=8 / vui-timing-info / vui-hrd-info / slices=1 / opt-qp-pps / opt-ref-list-length-pps / no-multi-pass-opt-rps / scenecut-bias=0.05 / no-opt-cu-delta-qp / no-aq-motion / hdr / hdr-opt / no-dhdr10-opt / analysis-reuse-level=5 / scale-factor=0 / refine-intra=0 / refine-inter=0 / refine-mv=0 / no-limit-sao / ctu-info=0 / no-lowpass-dct / refine-mv-type=0 / copy-pic=1
Default : Yes
Forced : No
Color range : Limited
Color primaries : BT.2020
Matrix coefficients : BT.2020 non-constant

Audio #1
ID : 2
Format : AC-3
Format/Info : Audio Coding 3
Mode extension : CM (complete main)
Format settings, Endianness : Big
Codec ID : A_AC3
Duration : 1h 40mn
Bit rate mode : Constant
Bit rate : 640 Kbps
Channel(s) : 6 channels
Channel positions : Front: L C R, Side: L R, LFE
Sampling rate : 48.0 KHz
Frame rate : 31.250 fps (1536 spf)
Compression mode : Lossy
Stream size : 458 MiB (2%)
Language : English


Audio #2
ID : 3
Format : AC-3
Format/Info : Audio Coding 3
Mode extension : CM (complete main)
Format settings, Endianness : Big
Codec ID : A_AC3
Duration : 1h 39mn
Bit rate mode : Constant
Bit rate : 640 Kbps
Channel(s) : 6 channels
Channel positions : Front: L C R, Side: L R, LFE
Sampling rate : 48.0 KHz
Frame rate : 31.250 fps (1536 spf)
Compression mode : Lossy
Delay relative to video : 1s 0ms
Stream size : 458 MiB (2%)
Title : Thai Dolby 5.1 ch 2K
Language : Thai
Default : Yes
Forced : Yes

Text #1
ID : 4
Format : PGS
Muxing mode : zlib
Codec ID : S_HDMV/PGS
Codec ID/Info : Picture based subtitle format used on BDs/HD-DVDs
Duration : 1h 35mn
Bit rate : 20.2 Kbps
Count of elements : 2094
Stream size : 13.8 MiB (0%)
Title : SDH 4k
Language : English


Text #2
ID : 5
Format : PGS
Muxing mode : zlib
Codec ID : S_HDMV/PGS
Codec ID/Info : Picture based subtitle format used on BDs/HD-DVDs
Duration : 1h 30mn
Bit rate : 27.1 Kbps
Count of elements : 1850
Stream size : 17.6 MiB (0%)
Title : 4k
Language : English

Text #3
ID : 6
Format : VobSub
Muxing mode : zlib
Codec ID : S_VOBSUB
Codec ID/Info : Picture based subtitle format used on DVDs
Duration : 1h 39mn
Bit rate : 6 856 bps
Count of elements : 978
Stream size : 4.87 MiB (0%)
Title : Thai Vob 1080p 2K
Language : Thai
Default : Yes
Forced : Yes

Text #4
ID : 7
Format : PGS
Muxing mode : zlib
Codec ID : S_HDMV/PGS
Codec ID/Info : Picture based subtitle format used on BDs/HD-DVDs
Duration : 1h 39mn
Bit rate : 24.0 Kbps
Count of elements : 1956
Stream size : 17.1 MiB (0%)
Title : Thai PGS 2K
Language : Thai


Text #5
ID : 8
Format : PGS
Muxing mode : zlib
Codec ID : S_HDMV/PGS
Codec ID/Info : Picture based subtitle format used on BDs/HD-DVDs
Duration : 1h 39mn
Bit rate : 24.0 Kbps
Count of elements : 1956
Stream size : 17.1 MiB (0%)
Title : Thai PGS 2K
Language : Thai

Text #6
ID : 9
Format : UTF-8
Codec ID : S_TEXT/UTF8
Codec ID/Info : UTF-8 Plain Text
Duration : 1h 30mn
Bit rate : 47 bps
Count of elements : 935
Stream size : 31.4 KiB (0%)
Title : Stripped SRT 4k
Language : English


Text #7
ID : 10
Format : UTF-8
Codec ID : S_TEXT/UTF8
Codec ID/Info : UTF-8 Plain Text
Duration : 1h 35mn
Bit rate : 49 bps
Count of elements : 1045
Stream size : 34.6 KiB (0%)
Title : SDH SRT 4k
Language : English
Default : No
Forced : No

Text #8
ID : 11
Format : PGS
Muxing mode : zlib
Codec ID : S_HDMV/PGS
Codec ID/Info : Picture based subtitle format used on BDs/HD-DVDs
Duration : 1h 32mn
Bit rate : 64.6 Kbps
Count of elements : 3214
Stream size : 42.8 MiB (0%)
Title : Commentary with Director Phillip Noyce 4k
Language : English
Default : No
Forced : No

Text #9
ID : 12
Format : PGS
Muxing mode : zlib
Codec ID : S_HDMV/PGS
Codec ID/Info : Picture based subtitle format used on BDs/HD-DVDs
Duration : 1h 39mn
Bit rate : 20.5 Kbps
Count of elements : 1851
Stream size : 14.5 MiB (0%)
Title : 4k
Language : French
Default : No
Forced : No

Text #10
ID : 13
Format : PGS
Muxing mode : zlib
Codec ID : S_HDMV/PGS
Codec ID/Info : Picture based subtitle format used on BDs/HD-DVDs
Duration : 1h 30mn
Bit rate : 25.4 Kbps
Count of elements : 1919
Stream size : 16.5 MiB (0%)
Title : 4k
Language : Spanish
Default : No
Forced : No

Text #11
ID : 14
Format : PGS
Muxing mode : zlib
Codec ID : S_HDMV/PGS
Codec ID/Info : Picture based subtitle format used on BDs/HD-DVDs
Duration : 1h 32mn
Bit rate : 62.3 Kbps
Count of elements : 3262
Stream size : 41.3 MiB (0%)
Title : Commentary with Director Phillip Noyce 4k
Language : Spanish
Default : No
Forced : No

Text #12
ID : 15
Format : PGS
Muxing mode : zlib
Codec ID : S_HDMV/PGS
Codec ID/Info : Picture based subtitle format used on BDs/HD-DVDs
Duration : 1h 30mn
Bit rate : 28.0 Kbps
Count of elements : 1928
Stream size : 18.2 MiB (0%)
Title : Eng PGS 2k
Language : English
Default : No
Forced : No

Text #13
ID : 16
Format : UTF-8
Codec ID : S_TEXT/UTF8
Codec ID/Info : UTF-8 Plain Text
Duration : 1h 30mn
Bit rate : 47 bps
Count of elements : 965
Stream size : 31.8 KiB (0%)
Title : Eng SRT 2k
Language : English
Default : No
Forced : No


ขึ้นไปข้างบน Go down
ดูข้อมูลส่วนตัว http://24hr-nonstop.thai-forum.net
 
[4K HDR 2160P] Salt (2010) สวยสังหาร [พากย์ไทย 5.1 + เสียงอังกฤษ 5.1] [บรรยายไทย + อังกฤษ]
ขึ้นไปข้างบน 
หน้า 1 จาก 1

Permissions in this forum:คุณไม่สามารถพิมพ์ตอบ
24Hr-NonStop :: Movie :: [4K UltraHD/HDR] Blu-Ray Full Rip 4K-
ไปที่: