24Hr-NonStop

เว็บโหลดหนังฟรี โหลดหนัง HD หนัง Master ซูม หนังเข้าใหม่ หนังเก่า แจกหนัง หนังต่างประเทศ หนังไทย โหลดเร็วโหลดฟรีไม่ต้องรอ
 
บ้านCalendarช่วยเหลือค้นหารายชื่อสมาชิกกลุ่มผู้ใช้สมัครสมาชิก(Register)เข้าสู่ระบบ(Log in)

Share | 
 

 [4K UHD 2160P] Peter Rabbit (2018) ปีเตอร์ แรบบิท [พากย์ไทย 5.1 + เสียงอังกฤษ TrueHD 7.1+Atmos] [บรรยายไทย + อังกฤษ]

Go down 
ผู้ตั้งข้อความ
Admin
Admin
avatar

จำนวนข้อความ : 191
Join date : 09/06/2018

ตั้งหัวข้อเรื่อง: [4K UHD 2160P] Peter Rabbit (2018) ปีเตอร์ แรบบิท [พากย์ไทย 5.1 + เสียงอังกฤษ TrueHD 7.1+Atmos] [บรรยายไทย + อังกฤษ]   Thu Jun 21, 2018 3:48 pm


[4K UHD 2160P] Peter Rabbit (2018) ปีเตอร์ แรบบิท [พากย์ไทย 5.1 + เสียงอังกฤษ TrueHD 7.1+Atmos] [บรรยายไทย + อังกฤษ]


Video
ID : 1
Format : HEVC
Format/Info : High Efficiency Video Coding
Commercial name : HDR10
Format profile : Main 10@L5.1@High
Codec ID : V_MPEGH/ISO/HEVC
Duration : 1 h 34 min
Bit rate : 14.5 Mb/s
Width : 3 840 pixels
Height : 1 606 pixels
Display aspect ratio : 2.40:1
Frame rate mode : Constant
Frame rate : 23.976 (24000/1001) FPS
Color space : YUV
Chroma subsampling : 4:2:0 (Type 2)
Bit depth : 10 bits
Bits/(Pixel*Frame) : 0.098
Stream size : 9.61 GiB (71%)

Audio #1
ID : 2
Format : TrueHD
Format profile : TrueHD+Atmos / TrueHD
Codec ID : A_TRUEHD
Duration : 1 h 34 min
Bit rate mode : Variable
Bit rate : 4 603 kb/s
Maximum bit rate : 8 133 kb/s
Channel(s) : Object Based / 8 channels
Channel positions : Object Based / Front: L C R, Side: L R, Back: L R, LFE
Sampling rate : / 48.0 kHz
Frame rate : 1 200.000 FPS (40 SPF)
Compression mode : Lossless
Stream size : 3.05 GiB (23%)
Language : English
Default : Yes
Forced : No

Audio #2
ID : 3
Format : AC-3
Format/Info : Audio Coding 3
Codec ID : A_AC3
Duration : 1 h 34 min
Bit rate mode : Constant
Bit rate : 384 kb/s
Channel(s) : 2 channels
Channel positions : Front: L R
Sampling rate : 48.0 kHz
Frame rate : 31.250 FPS (1536 SPF)
Bit depth : 16 bits
Compression mode : Lossy
Delay relative to video : 1 s 0 ms
Stream size : 260 MiB (2%)
Language : Thai
Service kind : Complete Main
Default : No
Forced : No

Audio #3
ID : 4
Format : AC-3
Format/Info : Audio Coding 3
Codec ID : A_AC3
Duration : 1 h 34 min
Bit rate mode : Constant
Bit rate : 640 kb/s
Channel(s) : 6 channels
Channel positions : Front: L C R, Side: L R, LFE
Sampling rate : 48.0 kHz
Frame rate : 31.250 FPS (1536 SPF)
Bit depth : 16 bits
Compression mode : Lossy
Stream size : 434 MiB (3%)
Language : English
Service kind : Complete Main
Default : No
Forced : No

Text #1
ID : 5
Format : PGS
Muxing mode : zlib
Codec ID : S_HDMV/PGS
Codec ID/Info : Picture based subtitle format used on BDs/HD-DVDs
Duration : 1 h 25 min
Bit rate : 43.3 kb/s
Count of elements : 2482
Stream size : 26.6 MiB (0%)
Title : AngsanaUPC
Language : Thai
Default : Yes
Forced : No

Text #2
ID : 6
Format : PGS
Muxing mode : zlib
Codec ID : S_HDMV/PGS
Codec ID/Info : Picture based subtitle format used on BDs/HD-DVDs
Duration : 1 h 25 min
Bit rate : 42.3 kb/s
Count of elements : 2482
Stream size : 26.0 MiB (0%)
Title : Tahoma
Language : Thai
Default : No
Forced : No

Text #3
ID : 7
Format : VobSub
Muxing mode : zlib
Codec ID : S_VOBSUB
Codec ID/Info : Picture based subtitle format used on DVDs
Duration : 1 h 25 min
Bit rate : 9 847 b/s
Count of elements : 1241
Stream size : 6.04 MiB (0%)
Title : AngsanaUPC
Language : Thai
Default : No
Forced : No

Text #4
ID : 8
Format : VobSub
Muxing mode : zlib
Codec ID : S_VOBSUB
Codec ID/Info : Picture based subtitle format used on DVDs
Duration : 1 h 25 min
Bit rate : 9 498 b/s
Count of elements : 1241
Stream size : 5.83 MiB (0%)
Title : Tahoma
Language : Thai
Default : No
Forced : No

Text #5
ID : 9
Format : PGS
Muxing mode : zlib
Codec ID : S_HDMV/PGS
Codec ID/Info : Picture based subtitle format used on BDs/HD-DVDs
Duration : 1 h 26 min
Bit rate : 53.8 kb/s
Count of elements : 3082
Stream size : 33.1 MiB (0%)
Language : English
Default : No
Forced : No

Text #6
ID : 10
Format : PGS
Muxing mode : zlib
Codec ID : S_HDMV/PGS
Codec ID/Info : Picture based subtitle format used on BDs/HD-DVDs
Duration : 1 h 33 min
Bit rate : 62.7 kb/s
Count of elements : 3901
Stream size : 42.1 MiB (0%)
Title : SDH
Language : English
Default : No
Forced : No


ขึ้นไปข้างบน Go down
ดูข้อมูลส่วนตัว http://24hr-nonstop.thai-forum.net
 
[4K UHD 2160P] Peter Rabbit (2018) ปีเตอร์ แรบบิท [พากย์ไทย 5.1 + เสียงอังกฤษ TrueHD 7.1+Atmos] [บรรยายไทย + อังกฤษ]
ขึ้นไปข้างบน 
หน้า 1 จาก 1

Permissions in this forum:คุณไม่สามารถพิมพ์ตอบ
24Hr-NonStop :: Movie :: [4K UltraHD/HDR] Blu-Ray Full Rip 4K-
ไปที่: